พฤษภาคม 2016



เรื่องย่อ : Now You See Me (2013) อาชญากลปล้นโลก

      เรื่องราวของนักมายากลกลุ่มหนึ่ง ที่ไม่เพียงทำให้ผู้ชมทึ่งไปกับกลต่าง ๆ เท่านั้น แต่พวกเขายังสร้างชื่อจากการปล้นธนาคาร โดยใช้การแสดงเหล่านั้นบังหน้าระหว่างลงมือก่ออาชญากรรม จนกระทั่งเจ้าหน้าที่เอฟบีไอต้องพยายามทำทุกวิธี เพื่อที่จะจับตัวพวกเขาให้ได้แบบคาหนังคาเขา และเดิมพันในการปล้นครั้งนี้ยิ่งสูงขึ้น เมื่อกลุ่มนักแสดงมายากลดังกล่าว ได้ประกาศว่า ทุกคนที่ร่วมชมการแสดงในครั้งนี้จะได้เงินเป็นรางวัลด้วย!!!



[Mini-HD] Now You See Me (2013) [1080p]

อาชญากลปล้นโลก : 3.56GB : [.MKV]

[เสียงไทยมาสเตอร์5.1-อังกฤษDTS] [บรรยายไทย-อังกฤษ]
+++ FREE DOWNLOAD 1GB X 4 PART +++

• PART 01 •

• PART 02 •
• PART 03 •

• PART 04 •



เรื่องย่อ : Teenage Mutant Ninja Turtles (2014) เต่านินจา

      ช่วงเวลาที่มหานครนิวยอร์กถูกครอบงำด้วยอำนาจชั่วร้ายของ เชร็ดเดอร์ จนกระทั่งความเปลี่ยนแปลงได้เกิดขึ้นเมื่อพี่น้อง 4 คนค้นพบว่าตัวเองมีพลังพิเศษเหนือมนุษย์และรวมตัวเป็นแก๊งนินจาเต่าในที่สุด โดยพวกเขาต้องร่วมมือกับนักข่าวสาวนามว่า เอพริล และตากล้องคู่ใจของเธอ เพื่อร่วมกันกอบกู้เมืองให้พ้นจากอันตรายและทำลายแผนการชั่วร้ายของ เชรดเดอร์ ให้ราบคาบ



[Mini-HQ] Teenage Mutant Ninja Turtles (2014) [1080p]

เต่านินจา : 4.25GB : [.MKV]

[เสียงไทยมาสเตอร์5.1-อังกฤษDTS] [บรรยายไทย-อังกฤษ]
+++ FREE DOWNLOAD 1GB X 5 PART +++

• PART 01 •

• PART 02 •
• PART 03 •
• PART 04 •
• PART 05 •




เรื่องย่อ : The Mermaid (2016) เงือกสาว ปัง ปัง
      ผลงานของผู้กำกับ โจวซิงฉือ ขึ้นอันดับ 1 หนังทำเงินสูงสุดตลอดกาลในประเทศจีน ชมตัวอย่างก่อนเข้าฉายในเมืองไทย 13 เมษายน ความยิ่งใหญ่ของอุตสาหกรรมภาพยนตร์ในประเทศจีน เป็นที่เลื่องชื่อว่ามีมูลค่าทางเศรษฐกิจมหาศาล ซึ่งเมื่อสัปดาห์ที่ผ่านมามีการสร้างสถิติครั้งใหม่ เมื่อผลงานล่าสุดของผู้กำกับ โจวซิงฉือ (Chow Sing-Chi) ที่ชื่อว่า The Mermaid กลายเป็นหนังทำเงินสูงสุดตลอดกาลในเองจีนไปแล้ว โดยเว็บไซต์ Box Office Mojo รายงานความสำเร็จของหนังเรื่อง The Mermaid ที่มาแรงอันดับ 1 และกลายเป็นหนังทำเงินสูงสุดตลอดกาลในประเทศจีน แซงหน้าแชมป์เก่าอย่าง Monster Hunt ที่ทำเอาไว้เมื่อปี2015 ดยทำรายได้รวมกว่า 2,733 ล้านหยวน หรือราว 1,500 ล้านบาท จากการเข้าฉายเพียง 2 สัปดาห์


[Mini-HQ] The Mermaid (2016) [1080p]

เงือกสาว ปัง ปัง : 3.92GB : [.MKV]

[เสียงไทยมาสเตอร์5.1-จีน5.1] [บรรยายอังกฤษ]
+++ FREE DOWNLOAD 1GB X 5 PART +++

• PART 01 •

• PART 02 •
• PART 03 •
• PART 04 •
• PART 05 •



เรื่องย่อ : Deadpool (2016) เดดพูล นักสู้พันธุ์เกรียน
      ภาพยนตร์สร้างขึ้นจากแอนตี้-ฮีโร่แนวใหม่ข­อง Marvel Comics เรื่อง DEADPOOL ถ่ายทอดเรื่องราวที่มาที่ไปของอดีตเจ้าหน้­าที่หน่วยเฉพาะกิจที่ผันตัวเองเป็นทหารรับ­จ้าง เวด วิลสัน เขาต้องผ่านการทดลองลับทำให้เขามีพลังสมาน­แผลได้อย่างรวดเร็ว และได้แปลงร่างเป็นเดดพูล ถูกหล่อหลอมด้วยคุณสมบัติใหม่และดูลึกลับ เปลี่ยนไปจากคนที่เคยอารมณ์ดี เดดพูลจึงออกล่าตามหาคนที่เกือบจะทำลายชีว­ิตของเขาไป



[Mini-HQ] Deadpool (2016) [1080p]เดดพูล นักสู้พันธุ์เกรียน : 4.12GB : [.MKV]
[เสียงไทยมาสเตอร์DTS-อังกฤษDTS] [บรรยายไทย-อังกฤษ]
+++ FREE DOWNLOAD 800MB X 6 PART +++
• PART 01 •
• PART 02 •
• PART 03 •
• PART 04 •
• PART 05 •
PART 06



http://www.imdb.com/title/tt3352390/

เตรียมพบกับประสบการณ์สุดสยองที่เข้ากับยุคโซเชียลครองเมืองตอนนี้เป็นอย่างดีกับ Friend Request ภาพยนตร์ระทึกขวัญที่ว่าด้วยเรื่องราวของนักศึกษาสาวที่อันเฟรนด์หญิงสาวปริศนาในโลกออนไลน์ จากเหตุการณ์ที่ดูธรรมดากลับกลายเป็นฝันร้ายสุดสะพรึง เมื่อการอันเฟรนด์ครั้งนั้นกลับทำให้เธอถูกปีศาจตามล่าและพยายามจะทำให้เธอต้องเหงาตายด้วยการฆ่าเพื่อนสนิทของเธอทีละคน!

General           : Friend.Request.2016.SATRip.XviD.AC3.THEATER-Zakky.mkv
Format            : Matroska at 2 237 Kbps
Length            : 1.36 GiB for 1h 26mn 57s 152ms

Video #0          : MPEG-4 Visual at 2 001 Kbps
Aspect            : 720 x 304 (2.368) at 25.000 fps

Audio #0          : AC-3 at 192 Kbps
Infos             : 2 ช่อง, 48.0 KHz
Language          : th
Screenshot (แคปจากตัวไฟล์)
[SuperMini-HD] Friend Request (2016)ผีแอดเพื่อน : 1.36GB : [.MKV]
[เสียงไทยโรง]
+++ FREE DOWNLOAD 400MB X 4 PART +++
• PART 01 •
• PART 02 •
• PART 03 •
PART 04




Warcraft (2016) กำเนิดศึกสองพิภพ

อาณาจักรอาซีร็อธอันเงียบสงบ กำลังใกล้จะเกิดสงครามปะทุขึ้นเมื่อความศิวิไลซ์ของอาณาจักรแห่งนี้กำลังเผชิญกับผู้รุกรานที่เป็นเผ่าพันธุ์ที่น่ากลัว นั่นก็คือ พวกนักรบออร์คซึ่งละทิ้งบ้านเกิดที่กำลังจะตายและหนีมาตั้งอาณานิคมที่ดาวดวงอื่น เมื่อประตูที่เชื่อมระหว่างสองโลกเปิดออก กองทัพฝ่ายหนึ่งเผชิญกับการทำลายล้าง ขณะที่อีกฝ่ายหนี่งเผชิญกับการสูญสิ้นเผ่าพันธุ์ จากทั้งสองด้านที่ต่างกัน สองวีรบุรุษต้องมาปะทะกัน ซึ่งจะเป็นตัวตัดสินชะตากรรมของวงศ์ตระกูลของพวกเขา รวมถึงประชาชนร่วมเผ่าพันธุ์ และบ้านของพวกเขาด้วย นั่นคือจุดเริ่มต้นของเรื่องราวที่พัวพันกับอำนาจและการเสียสละ ที่ซึ่งสงครามมีหลายโฉมหน้า และทุกคนต่างต่อสู้เพื่อบางสิ่งบางอย่าง


Format                                   : Matroska
Format version                           : Version 2
File size                                : 745 MiB
Duration                                 : 1h 53mn
Overall bit rate mode                    : Variable
Overall bit rate                         : 921 Kbps
Writing application                      : Lavf54.63.104
Writing library                          : Lavf54.63.104 / Lavf54.63.104

Video
ID                                       : 1
Format                                   : AVC
Format/Info                              : Advanced Video Codec
Format profile                           : High@L3.1
Format settings, CABAC                   : Yes
Format settings, ReFrames                : 4 frames
Codec ID                                 : V_MPEG4/ISO/AVC
Duration                                 : 1h 53mn
Bit rate                                 : 838 Kbps
Width                                    : 1 280 pixels
Height                                   : 720 pixels
Display aspect ratio                     : 16:9
Frame rate mode                          : Constant
Frame rate                               : 25.000 fps
Color space                              : YUV
Chroma subsampling                       : 4:2:0
Bit depth                                : 8 bits
Scan type                                : Progressive
Bits/(Pixel*Frame)                       : 0.036
Stream size                              : 678 MiB (91%)
Writing library                          : x264 core 133
Encoding settings                        : cabac=1 / ref=3 / deblock=1:0:0 / analyse=0x3:0x113 / me=hex / subme=7 / psy=1 / psy_rd=1.00:0.00 / mixed_ref=1 / me_range=16 / chroma_me=1 / trellis=1 / 8x8dct=1 / cqm=0 / deadzone=21,11 / fast_pskip=1 / chroma_qp_offset=-2 / threads=6 / lookahead_threads=1 / sliced_threads=0 / nr=0 / decimate=1 / interlaced=0 / bluray_compat=0 / constrained_intra=0 / bframes=3 / b_pyramid=2 / b_adapt=1 / b_bias=0 / direct=1 / weightb=1 / open_gop=0 / weightp=2 / keyint=250 / keyint_min=25 / scenecut=40 / intra_refresh=0 / rc_lookahead=40 / rc=crf / mbtree=1 / crf=23.0 / qcomp=0.60 / qpmin=0 / qpmax=69 / qpstep=4 / ip_ratio=1.40 / aq=1:1.00
Default                                  : Yes
Forced                                   : No
HANDLER_NAME                             : VideoHandler

Audio
ID                                       : 2
Format                                   : Vorbis
Format settings, Floor                   : 1
Codec ID                                 : A_VORBIS
Duration                                 : 1h 53mn
Bit rate mode                            : Variable
Bit rate                                 : 64.0 Kbps
Channel(s)                               : 2 channels
Sampling rate                            : 44.1 KHz
Compression mode                         : Lossy
Delay relative to video                  : -3ms
Stream size                              : 51.8 MiB (7%)
Writing application                      : Lavc54.92.100
Writing library                          : libVorbis (Omnipresent) (20120203 (Omnipresent))
Default                                  : Yes
Forced                                   : No
Encoded date                             : UTC 2016-05-29 19:17:40
HANDLER_NAME                             : IsoMedia File Produced by Google, 5-11-2011
Screenshot (แคปจากตัวไฟล์)
Waiting...

 

เรื่องราวสมมุติว่าคุณ (ผู้ชม) คือชายคนหนึ่งที่ตื่นมาโดยจำอะไรไม่ได้ โดยที่เมียของเขา (เฮลีย์ เบ็นเน็ตต์) เล่าระหว่างต่อแขนและขาให้ว่า เพิ่งนำเขากลับมาจากความตาย เธอบอกว่าเขาชื่อ เฮนรี่ แต่ 5 นาทีต่อมา เฮนรี่ก็ถูกยิงและเมียของเขาก็ถูกลักพาตัวไป เขาจะต้องไปช่วยเธอกลับมา จาก อะคัน (ดานิล่า โคซลอฟสกี้) ผู้นำทรงอำนาจที่มีกองทัพทหารรับจ้าง และวางแผนครอบครองโลก และเฮนรี่ยังค้นพบว่า เขาอยู่ในเมืองมอสโก ที่ๆ ทุกคนอยากฆ่าเขาให้ตาย ยกเว้นเพื่อนชาวอังกฤษสุดลึกลับนามว่า จิมมี่ (ชาร์ลโต้ คอปลีย์) แม้ไม่แน่ใจว่าชายคนนี้เป็นมิตรแท้หรือไม่ เฮนรี่ก็ต้องร่วมมือกับจิมมี่ เพื่อเอาชีวิตรอดจากเรื่องบ้าๆ นี้ให้ได้ และแก้ไขปริศนาของตัวเขาเองที่อาจนำไปสู่การค้นพบความจริงที่คาดไม่ถึง! 
 
General           : Hardcore.Henry.2015.720p.HDRip.KORSUB.x264.AC3.THEATER-Zakky.mkv
Format            : Matroska at 4 493 Kbps
Length            : 3.03 GiB for 1h 36mn 24s 864ms
 
Video #0          : AVC
Aspect            : 1280 x 720 (1.778) at 29.970 fps
 
Audio #0          : AC-3 at 192 Kbps
Infos             : 2 ช่อง, 48.0 KHz
Language          : th
 
Audio #1          : AAC
Infos             : 2 ช่อง, 44.1 KHz
Language          : en
Screenshot (แคปจากตัวไฟล์)



http://www.imdb.com/title/tt3498820/

         ใน Captain America: Civil Warสตีฟ โรเจอร์ส นำทีมอเวนเจอร์สกลุ่มใหม่ออกปฏิบัติการ ในความพยายามปกป้องมนุษยชาติอย่างต่อเนื่อง หลังจากเหตุการณ์ต่าง ๆ ทั่วโลกที่เกี่ยวข้องกับเหล่าอเวนเจอร์สได้ทำให้เกิดความเสียหายและส่งผลกระทบไปสู่ผู้บริสุทธิ์อื่น ๆ กลุ่มการเมืองได้กดดันให้มีการจัดระบบขอบเขตความรับผิดชอบที่นำโดยคณะกรรมการเพื่อควบคุมและกำกับดูแลพวกเขา สถานภาพใหม่นี้ได้สร้างรอยร้าวให้กับเหล่าอเวนเจอร์ส ส่งผลให้เกิดการแบ่งเป็น 2 ฝ่าย ฝ่ายหนึ่งนำทีมโดย สตีฟ โรเจอร์ และความต้องการที่จะให้อเวนเจอร์สยังคงปกป้องมนุษยชาติได้อย่างมีอิสรภาพโดยปราศจากการแทรกแซงของรัฐบาล อีกหนึ่งทีมนำโดย โทนี่ สตาร์ค และการตัดสินใจที่น่าประหลาดใจในการสนับสนุนมาตรการในการถูกควบคุมดูแลโดยรัฐบาล เตรียมตัวเลือกฝ่ายและร่วมเป็นส่วนหนึ่งของภาพยนตร์แอ็คชั่นแบบนันสต็อปกับสองผู้นำทีมทั้ง 2 ฝ่าย
          Captain America: Civil War นำแสดงโดย คริส อีแวนส์, โรเบิร์ต ดาวนีย์ จูเนียร์, สการ์เลตต์ โจแฮนสัน, เซบาสเตียน แสตน, แอนโธนี แม็คกี้, เอมิลี่ แวนแคมป์, ดอน เชียดัล, เจเรมี เรนเนอร์, แชดวิค โบสแมน, พอล เบตตานี, อลิซาเบธ โอลเซน, พอล รัดด์, แฟรงค์ กริลโล่, ร่วมด้วย วิลเลียน เฮิร์ท และ แดเนียล บรูห์ล
          แอนโธนี และโจ รัสโซ รับหน้าที่ผู้กำกับ เควิน ไฟกี เป็น ผู้อำนวยการสร้าง หลุยส์ ดิ’เอสโพซิโต, อลัน ไฟน์, วิคตอเรีย อลอนโซ, แพทริเซีย วิทช์เชอร์, เนท มัวร์, และ แสตน ลี เป็น ผู้อำนวยการสร้างบริหาร บทภาพยนตร์โดย คริสโตเฟอร์ มาร์คัส และ สตีเฟน แม็คฟีลีย์

Unique ID                                : 172120498750137473075026724779197114711 (0x817D33C737CF596AAA42460143AAA957)
Complete name                            : Captain.America.Civil.War.2016.HD-TC.x264.AC3-CPG.THEATER-One3up.com.mkv
Format                                   : Matroska
Format version                           : Version 4 / Version 2
File size                                : 8.38 GiB
Duration                                 : 2h 27mn
Overall bit rate                         : 8 147 Kbps
Encoded date                             : UTC 2016-05-09 07:02:49
Writing application                      : mkvmerge v8.9.0 (‘Father Daughter’) 64bit
Writing library                          : libebml v1.3.3 + libmatroska v1.4.4

Video
ID                                       : 1
Format                                   : MPEG-4 Visual
Format settings, BVOP                    : No
Format settings, QPel                    : No
Format settings, GMC                     : No warppoints
Format settings, Matrix                  : Default (H.263)
Codec ID                                 : V_MS/VFW/FOURCC / DIVX
Codec ID/Info                            : Project Mayo
Codec ID/Hint                            : DivX 4
Duration                                 : 2h 27mn
Bit rate                                 : 7 994 Kbps
Width                                    : 1 920 pixels
Height                                   : 1 080 pixels
Display aspect ratio                     : 16:9
Frame rate mode                          : Constant
Frame rate                               : 23.976 (23976/1000) fps
Color space                              : YUV
Chroma subsampling                       : 4:2:0
Bit depth                                : 8 bits
Scan type                                : Progressive
Compression mode                         : Lossy
Bits/(Pixel*Frame)                       : 0.161
Stream size                              : 8.22 GiB (98%)
Writing library                          : Lavc55.18.102
Language                                 : English
Default                                  : Yes
Forced                                   : No

Audio
ID                                       : 2
Format                                   : AAC
Format/Info                              : Advanced Audio Codec
Format profile                           : LC
Codec ID                                 : A_AAC
Duration                                 : 2h 27mn
Bit rate                                 : 152 Kbps
Channel(s)                               : 2 channels
Channel positions                        : Front: L R
Sampling rate                            : 44.1 KHz
Frame rate                               : 43.066 fps (1024 spf)
Compression mode                         : Lossy
Stream size                              : 160 MiB (2%)
Language                                 : Thai
Default                                  : Yes
Forced                                   : No

Screenshot (แคปจากตัวไฟล์)








[Mini-HD] Captain America Civil War (2016) [1080p]กัปตัน อเมริกา ศึกฮีโร่ระห่ำโลก : 3.38GB : [.MKV]
[เสียงไทยโรง-อังกฤษ]
+++ FREE DOWNLOAD 1GB X 4 PART +++
• PART 01 •
• PART 02 •
• PART 03 •
PART 04





http://www.imdb.com/title/tt2404233/

          Gods of Egypt สงครามเทวดา พาเราย้อนกลับไปในยุคโบราณกาลที่เหล่าทวยเทพและเทวียังปกครองโลก เป็นศูนย์รวมจิตใจของมวลมนุษย์ แต่เมื่อเทพเซท (เจอร์ราด บัตเลอร์) เทพแห่งทะเลทรายและความมืดมิด ได้เปิดศึกชิงอำนาจปกครองแผ่นดินมนุษย์กับ เทพฮอรัส (นิโคไล คอสเตอร์ วัลดาอู) เทพแห่งท้องฟ้า จนทำให้ฮอรัสสูญเสียดวงตาศักดิ์สิทธิ์ และส่งผลให้อียิปต์ตกอยู่ในกลียุค
          เป็นเหตุให้มนุษย์อย่าง เบค (เบรนตัน ธเวทส์) หัวขโมยหนุ่ม ต้องร่วมมือลุกขึ้นสู้ไปพร้อมกับเทพฮอรัส หยุดยั้งอำนาจชั่วร้ายของเทพเซท ด้วยการขโมยดวงตาศักดิ์สิทธิ์
          คืนพลังอำนาจให้ฮอรัส พร้อมกับแลกอิสรภาพของ ซาย่า (คอร์ทนีย์ อีตัน) หญิงสาวที่ตนตกหลุมรักซึ่งโดนสมุนของเซทจับตัวไป นำไปสู่การผนึกกำลังระหว่างทวยเทพและมนุษย์เพื่อพิชิตเทพเซทและสมุนอสุรกายของเขาให้ได้ จนก่อเกิดเป็นมหึมาสงครามที่จะลิขิตชะตากรรมเหล่าทวยเทพและมวลมนุษย์ไปตลอดกาล

General           : Gods.of.Egypt.2016.1080p.WEB-DL.H264.AC3.THEATER-Zakky.mkv
Format            : Matroska at 4 639 Kbps
Length            : 4.11 GiB for 2h 6mn 50s 209ms

Video #0          : AVC at 4 354 Kbps
Aspect            : 1920 x 800 (2.400) at 24.000 fps

Audio #0          : AC-3 at 192 Kbps
Infos             : 2 ช่อง, 48.0 KHz
Language          : th
Screenshot (แคปจากตัวไฟล์)






http://www.imdb.com/title/tt3300542/

          เจอราร์ด บัตเลอร์ กลับมารับบท ไมค์ แบนนิง เจ้าหน้าที่หน่วยสืบราชการลับอีกครั้งใน London Has Fallenซีเควลสุดระห่ำของภาพยนตร์ยอดนิยมที่ทำรายได้ถล่มทลายในบ็อกซ์ออฟฟิศ Olympus Has Fallen ผู้ที่กลับมาร่วมแสดงในภาพยนตร์แอ็กชันทริลเลอร์ลุ้นระทึกแบบนอนสต็อปเรื่องนี้ด้วยได้แก่ แอรอน เอ็คฮาร์ต ในบท ประธานาธิบดีสหรัฐ เบนจามิน แอชเชอร์ และมอร์แกน ฟรีแมน ในบท อัลลัน ทรัมบุล ที่บัดนี้ดำรงตำแหน่งรองประธานาธิบดี
          งานเลี้ยงแต่งงานที่เลิศหรูกำลังดำเนินไปในเมืองลาฮอร์ ประเทศปากีสถาน ทว่าพ่อของเจ้าสาวคืออาเมียร์ บาร์คาวี (อลอน โมนี อเบาท์บูล) พ่อค้าอาวุธสงครามและหนึ่งในบุคคลที่เป็นที่ต้องการตัวมากที่สุดในโลก เครื่องโดรนบังคับได้สังหารผู้เข้าร่วมงานเลี้ยงแต่งงานอย่างรวดเร็ว รวมถึงลูกสาวของบาร์คาวีด้วย แต่ตัวเขากลับหลบหนีไปได้แม้จะได้รับบาดเจ็บสาหัส และเขากับลูกชายก็สาบานว่าจะต้องแก้แค้นให้ได้
          สองปีให้หลังในวอชิงตัน, ดี.ซี. ไมค์ แบนนิง และลีอาห์ ภรรยาของเขา (ราดาห์ มิทเชล) ที่ชีวิตคู่ของพวกเขาหวานชื่นกว่าแต่ก่อน รอคอยการเกิดมาของลูกคนแรกของพวกเขาอย่างใจจดใจจ่อ ด้วยความที่เขายังคงเป็นเจ้าหน้าที่สืบราชการลับที่ขึ้นตรงกับแอชเชอร์ แบนนิงจึงคอยระแวดระวังตัวอยู่ตลอดเวลา ในตอนที่นายกรัฐมนตรีอังกฤษเสียชีวิตอย่างไม่คาดฝัน แบนนิงก็รู้ว่าเขาจะต้องทำงานร่วมกับลินน์ จาค็อบ (แองเจลา บาสเซ็ทท์) ผู้อำนวยการหน่วยสืบราชการลับ เพื่อติดตามท่านประธานาธิบดีไปยังพิธีศพที่จัดขึ้นที่วิหารเซนต์ปอลในกรุงลอนดอน
          ด้วยความที่ผู้นำผู้ทรงอิทธิพลของโลกทุกคนจะเข้าร่วมงาน งานศพครั้งนี้ควรจะเป็นเหตุการณ์ที่ได้การคุ้มกันสูงสุดในโลก แต่ไม่นานนักหลังจากมาถึง คนสำคัญของรัฐบาลกลับถูกลอบสังหารและสถานที่สำคัญของลอนดอนกลับถูกโจมตี แอชเชอร์, แบนนิงและจาค็อบส์ถูกซุ่มโจมตีจนต้องถอยไปตั้งหลักท่ามกลางห่ากระสุนและดงระเบิด เมืองหลวงของอังกฤษเข้าสู่สภาพปิดตาย ตำรวจลอนดอนและกองกำลังติดอาวุธตระหนักดีว่าพวกเขาถูกแทรกซึมด้วยการที่การสื่อสารทั้งหมดถูกดักฟัง แบนนิง ผู้ได้รับมอบหมายจากจาค็อบส์ให้ดูแลความปลอดภัยของแอชเชอร์ จะต้องทำตัวล่องหนเพื่อก้าวนำสิ่งที่เขารู้มาว่าเป็นแผนการเหี้ยมโหดโดยบาร์คาวี ผู้แทรกซึมเข้ามาในเมืองนี้ผ่านทางการวางแผนอย่างรอบคอบของตัวบาร์คาวีเองและลูกชายของเขา คัมราน (วัลลี้ด เอฟ. ซัวเตอร์) แต่ครอบครัวบาร์คาวีไม่ได้คาดคิดว่าจะเจอศัตรูที่อึดขนาดนี้ เมื่อพวกเขาเริ่มต้นแผนการชวนตะลึงที่มีเป้าหมายเป็นท่านประธานาธิบดี แบนนิงก็จะทำทุกอย่างเพื่อให้แอชเชอร์กลับประเทศอย่างปลอดภัย
          ณ ทำเนียบขาว รองประธานาธิบดีทรัมบุลต้องทำงานแข่งกับเวลาเพื่อระดมความคิดร่วมกับที่ปรึกษาระดับสูงในห้องสถานการณ์ (รับบทโดยแจ็คกี้ เอิร์ล ฮาเลย์และนักแสดงเดิมจาก Olympus Has Fallen โรเบิร์ต ฟอร์สเตอร์, เมลิสสา ลีโอและฌอน โอ’ ไบรอัน) เพื่อหาทางสนับสนุนและทางออกให้กับพวกที่ติดอยู่ในลอนดอน แบนนิง ผู้ขาดทั้งอาวุธและกำลังคน ได้ขอความช่วยเหลือจากเจ้าหน้าที่หน่วยเอ็มไอซิกส์ของอังกฤษ (ชาร์ล็อตต์ ไรลีย์) ผู้ไม่เชื่อใจใคร ความผิดพลาดไม่ใช่ทางเลือกเมื่อพวกเขาพยายามจะหยุดยั้งผู้ร้ายจากการเดินหน้าขั้นตอนสุดท้ายของแผนการแก้แค้นของพวกเขา

General           : London.Has.Fallen.2016.1080p.WEB-DL.Custom.DD5.1.x264.MiXTHAI-Zakky.mkv
Format            : Matroska at 5 246 Kbps
Length            : 3.61 GiB for 1h 38mn 24s 224ms

Video #0          : AVC at 4 373 Kbps
Aspect            : 1920 x 804 (2.388) at 24.000 fps

Audio #0          : AC-3 at 384 Kbps
Infos             : 6 ช่อง, 48.0 KHz
Language          : en

Audio #1          : AC-3 at 192 Kbps
Infos             : 2 ช่อง, 48.0 KHz
Language          : en

Audio #2          : AC-3 at 192 Kbps
Infos             : 2 ช่อง, 48.0 KHz
Language          : th

Text #0           : VobSub
Language          : th

Text #1           : VobSub
Language          : th

Text #2           : VobSub
Language          : th

Text #3           : VobSub
Language          : th

Text #4           : UTF-8
Language          : th

Text #5           : UTF-8
Language          : en

Text #6           : PGS
Language          : th

Text #7           : PGS
Language          : th
Screenshot (แคปจากตัวไฟล์)


[Mini-HD] London Has Fallen (2016) [1080p]ยุทธการถล่มลอนดอน : 3.30GB : [.MKV]
[เสียงไทยโรง-อังกฤษ] [บรรยายอังกฤษ]
+++ FREE DOWNLOAD 1GB X 4 PART +++
• PART 01 •
• PART 02 •
• PART 03 •
• PART 04 •






http://www.imdb.com/title/tt1712261/

Triple 9 เมื่อทีมปล้นธนาคารที่ประกอบไปด้วยตำรวจฉ้อฉลและอดีตทหารกองกำลังพิเศษถูกบีบให้ต้องทำการโจรกรรมเสี่ยงตายให้กับมาเฟียผู้เหี้ยมโหด พวกเขาตัดสินใจว่าหนทางรอดชีวิตเพียงหนึ่งเดียวของพวกเขาคือ การทำให้กองกำลังตำรวจแอตแลนตาไขว้เขวด้วยรหัสตำรวจ “999” (ทริปเปิ้ล ไนน์) ซึ่งหมายถึง “มีตำรวจบาดเจ็บ” ทำให้ ตำรวจผู้ซื่อตรง ต้องมาคลี่คลายปมต่าง ๆ ที่เกิดขึ้นอย่างเลี่ยงไม่ได้

General           : Triple.9.2016.1080p.SuperHQ.x264.THAIDTS.x264.MASTER-Zakky.mkv
Format            : Matroska at 5 224 Kbps
Length            : 4.22 GiB for 1h 55mn 45s 950ms

Video #0          : AVC at 3 630 Kbps
Aspect            : 1920 x 800 (2.400) at 23.976 fps

Audio #0          : DTS at 768 Kbps
Infos             : 6 ช่อง, 48.0 KHz
Language          : th

Audio #1          : DTS at 755 Kbps
Infos             : 6 ช่อง, 48.0 KHz
Language          : en

Text #0           : VobSub
Language          : th

Text #1           : VobSub
Language          : th

Text #2           : VobSub
Language          : th

Text #3           : VobSub
Language          : th

Text #4           : UTF-8
Language          : th

Text #5           : PGS
Language          : th

Text #6           : PGS
Language          : th

Text #7           : PGS
Language          : en
Screenshot (แคปจากตัวไฟล์)


Author Name

ฟอร์มรายชื่อติดต่อ

ชื่อ

อีเมล *

ข้อความ *

ขับเคลื่อนโดย Blogger.